Рекомендуем
Поиск
Логин: 

Пароль: 
 

Регистрация | Напомнить пароль

Навигация

Новости Кино

Комментарии

Топ новости

Реклама

Солт / Salt [2010/DVDRip/HD/iPhone4]
18-09-2010, 01:26 Комментарии(0)
Выпущено: США
Продолжительность: 01:55:53
Перевод: Дублированный [лицензия]

Исходник: DVDRip
Формат: MP4
Видео: 960x392, MPEG-4, 512 kb/s
Аудио: MP3, 2 ch, 44 kHz, VBR ~96 kb/s
Оптимизировано под устройство: [iPhone 4]
Размер: 1.63 GB

Solt.2010.D.DVDRip.iPhone4.960x392.mp4
General
Complete name : Solt.2010.D.DVDRip.iPhone4.960x392.mp4
Format : MPEG-4
Format profile : Base Media
Codec ID : isom
File size : 1.63 GiB
Duration : 1h 35mn
Overall bit rate : 2 436 Kbps
Encoded date : UTC 2010-08-27 23:12:17
Tagged date : UTC 2010-08-27 23:12:17
Video #1
ID : 1
Format : AVC
Format/Info : Advanced Video Codec
Format profile : Main@L3.0
Format settings, CABAC : Yes
Format settings, ReFrames : 2 frames
Codec ID : avc1
Codec ID/Info : Advanced Video Coding
Duration : 1h 35mn
Bit rate mode : Variable
Bit rate : 2 304 Kbps
Maximum bit rate : 8 256 Kbps
Width : 960 pixels
Height : 392 pixels
Display aspect ratio : 2.40:1
Frame rate mode : Constant
Frame rate : 25.000 fps
Resolution : 24 bits
Colorimetry : 4:2:0
Scan type : Progressive
Bits/(Pixel*Frame) : 0.245
Stream size : 1.54 GiB (95)
Writing library : x264 core 65 r999kMod cc51047
Encoding settings : cabac=1 / ref=2 / deblock=1:0:0 / analyse=0x1:0 / me=dia / subme=1 / psy_rd=0.0:0.0 / mixed_ref=1 / me_range=16 / chroma_me=1 / trellis=0 / 8x8dct=0 / cqm=0 / deadzone=21,11 / chroma_qp_offset=0 / threads=2 / thread_queue=2 / nr=0 / decimate=1 / mbaff=0 / bframes=3 / b_pyramid=0 / b_adapt=1 / b_bias=0 / direct=3 / wpredb=0 / keyint=250 / keyint_min=25 / scenecut=40(pre) / rc=2pass / bitrate=2304 / ratetol=1.0 / qcomp=0.60 / qpmin=10 / qpmax=51 / qpstep=4 / cplxblur=20.0 / qblur=0.5 / ip_ratio=1.40 / pb_ratio=1.30 / aq=1:1.00
Encoded date : UTC 2010-08-27 23:12:17
Tagged date : UTC 2010-08-27 23:15:16
Audio #2
ID : 2
Format : AAC
Format/Info : Advanced Audio Codec
Format version : Version 4
Format profile : LC
Format settings, SBR : No
Codec ID : 40
Duration : 1h 35mn
Bit rate mode : Variable
Bit rate : 129 Kbps
Maximum bit rate : 184 Kbps
Channel(s) : 2 channels
Channel positions : L R
Sampling rate : 48.0 KHz
Resolution : 16 bits
Stream size : 88.5 MiB (5)
Encoded date : UTC 2010-08-27 23:15:10
Tagged date : UTC 2010-08-27 23:15:16

Счастливым обладателям iPhone 4 посвящается!
Не судите строго, это моя попытка кодировать фильмы в формате и разрешении поддерживаемом iPhone 4!
Если вам не равнодушна судьба ВИДЕО для iPhone 4, отпишитесь в теме, воспроизводится ли фильм на iPhone 4 или нет!
У самого iPhone 3GS в iTunes фильм грузится, при попытке залить на 3GS выдает ошибку: Файл с данным разрешением не может быть воспроизведен на данном iPhone 3GS.
ЖДУ ВАШИХ КОМЕНТАРИЕВ!

Скриншоты:
Солт / Salt [2010/DVDRip/HD/iPhone4]

Солт / Salt [2010/DVDRip/HD/iPhone4]

Солт / Salt [2010/DVDRip/HD/iPhone4]


Скачать Солт / Salt [2010/DVDRip/HD/iPhone4]
aecom Просмотров:294
  • 0
Информация
Посетители, находящиеся в группе Гость, не могут оставлять комментарии к данной публикации.

Подписывайтесь

Чат SCTeam.net

edik123456
edik123456
19 октября 2017

vsem privet bully
mariposka
mariposka
3 октября 2017

bully
Буду стараться переодически добавлять материал как это было и раньше winked
agrisli
agrisli
3 октября 2017

mariposka вернулся. wink
Ура. Ура. Ура.
И опять стало что посмотреть.
СПАСИБО. fellow
spoler
spoler
28 сентября 2017

конeц сентября
edik123456
edik123456
14 сентября 2017

privet vsem bully
Armand Balyan
Armand Balyan
5 августа 2017

Hi, I have been using and love your site for years, but now some how you stop puting movies in uploaded.net. is there any reason/
Thank you.
mariposka
mariposka
17 июля 2017

spoler
К сожалению до конца сентября нет возможности заниматься этим.
spoler
spoler
16 июля 2017

Привет, а Фильмы на Ниметцком больше не заливаютця?
Admin
Admin
23 июня 2017

Уплоадед снимается как обязательный обменник (из за следующим за рапидшаре и летитбитом политикой).
Пользователям рекомендуется не приобретать премиум аккаунты на uploaded.to.
Заливаем Минимум два обменника в темах, Нитра и турба самый оптимальный вариант.
Комбинация турбобит и его клонов не принимаюся.
fil77
fil77
20 июня 2017

Админы,помогите скиньте пожалуйста какой нибудь адресс трекера где фильмы на немецком качать можно.
спасибо

Только зарегистрированные посетители могут писать в чате.

Реклама

Новинки сериалов

Партнеры

Опрос

С какого обменника вы чаще скачиваете файлы? [?]

Letitbit.net
Vip.File
Turbobit.net
Fileplaneta.com
DepositFiles
Uploaded.net
Rapidgator.net
Unibytes.com
С любого бесплатного.
С любого, где проще купить премиум.
Другой

Реклама